#TITLE:Salieri Strikes Back;
#SUBTITLE:;
#ARTIST:Warmen;
#TITLETRANSLIT:;
#SUBTITLETRANSLIT:;
#ARTISTTRANSLIT:;
#CREDIT:;
#BANNER:Salieri Strikes Back_logo.jpg;
#BACKGROUND:Salieri Strikes Back_bg.jpg;
#LYRICSPATH:;
#CDTITLE:Lan.png;
#MUSIC:Salieri Strikes Back.mp3;
#OFFSET:-0.040;
#SAMPLESTART:100.000;
#SAMPLELENGTH:12.000;
#SELECTABLE:YES;
#BPMS:0.000=120.625,233.500=115.000,234.000=110.000,234.500=105.000,235.000=100.000,236.500=105.000,239.000=100.000,243.500=97.500,246.000=70.000;
#STOPS:;
#BGCHANGES:;
// cache tags:
#FIRSTBEAT:4.000;
#LASTBEAT:246.250;
#SONGFILENAME:Songs/lan sky/Salieri Strikes Back/Salieri Strikes Back.sm;
#HASMUSIC:1;
#HASBANNER:1;
#MUSICLENGTH:127.781;
// end cache tags

//---------------dance-single - sky----------------
#NOTES:
     dance-single:
     sky:
     Hard:
     10:
     1.000,1.000,1.000,0.125,1.000,831.000,139.000,16.000,0.000,22.000:

0000
0000
0000
0000
,
1000
0100
0010
0001
0010
0100
1000
0100
0010
0001
0010
0100
1000
0100
0010
0001
,
1000
0100
0010
0001
0010
0100
1000
0100
0010
0001
0010
0100
1000
0100
0010
0001
,
0010
0100
0010
0001
0010
0100
1000
0010
0010
0100
1000
0100
0010
0001
0010
0100
,
1000
0000
0010
0000
0101
0000
1100
0000
0001
0010
0100
1000
0100
0010
0001
0010
,
1000
0100
1000
0100
0010
0001
0010
0001
0100
0010
0100
0010
0100
0010
1000
0010
,
1000
0010
1000
0001
0010
0100
0010
0001
0100
0010
1000
0010
0001
0100
1000
0010
,
0100
1000
0010
0100
0010
0100
0010
0001
0010
1000
0100
0010
0100
1000
0100
0010
,
1100
0000
0110
0000
0011
0000
0110
0000
1000
0100
0010
0100
1000
0010
0001
0010
,
1000
0100
1010
0000
1000
0100
1010
0000
1000
0100
1010
0000
1000
0100
0011
0000
,
0001
0100
0011
0000
0001
0100
0011
0000
0001
0100
0011
0000
0001
0100
0110
0000
,
0100
0100
0011
0000
1000
1000
0110
0000
0001
0001
0110
0000
1000
1000
0101
0000
,
0100
0010
0110
0000
1000
0100
1010
0000
0100
0010
0001
0010
0100
1000
0100
0010
,
2000
0000
0000
0000
0000
0000
0100
0010
3002
0000
0000
0000
0000
0000
0010
0100
,
1003
0000
0000
0100
0000
0000
0001
0000
2000
0000
0000
0000
0000
0000
0000
0000
,
3100
0010
0001
0010
0100
0010
0100
1000
0100
0010
0001
0010
0100
1000
0100
0010
,
1000
0000
1000
0100
0010
0001
0010
0100
2000
0000
0000
0000
0000
0000
0000
0000
,
3110
0001
0010
0001
1100
0010
0100
1000
0101
1000
0010
1000
0110
1000
0100
0010
,
1001
0000
0000
0110
0000
0000
2000
0000
0000
0000
0000
0100
0000
0010
0001
0000
,
3110
0000
0110
0010
0000
0100
1010
0110
,
1000
0100
1000
0010
0001
0010
0100
0010
0100
1000
0100
0010
0100
0010
0001
0010
,
2100
0010
0100
0000
0010
0001
0010
0000
0100
0010
0100
0000
0010
0001
0010
0000
,
3210
0001
0010
0000
1000
0010
1000
0000
0010
0001
1000
0000
0010
1000
0001
0000
,
0312
0100
1000
0000
0100
1000
0100
0000
0010
1000
0010
0000
1000
0100
0010
0000
,
1103
0000
0110
0000
0101
0000
1100
0000
0010
0001
0010
0100
1000
0100
0010
0001
,
1100
0110
0011
1100
0011
1100
0110
1001
,
0110
1010
0110
1001
0110
1001
0110
1100
,
0110
0110
1001
1001
0110
1100
0101
1010
,
0101
0000
0110
0000
1100
0000
0011
0000
1000
0100
0010
0100
0010
0001
0010
1000
,
0100
0010
0001
0010
0100
0010
0001
0010
0100
1000
0100
0010
0100
0001
0010
0100
1000
0100
0010
0001
0010
0100
1000
0010
0100
0010
0001
0010
0001
0010
0100
1000
,
0100
0010
0001
0010
1000
0010
0001
0100
0010
1000
0100
0010
0100
1000
0001
0100
1000
0010
1000
0001
0010
0100
1000
0001
0100
0010
0001
0100
1000
0010
0100
1000
,
0011
0100
1000
0100
0011
0100
0010
0100
1001
0100
0010
0100
1000
0100
0010
0001
0010
0100
1000
0100
0010
0001
0010
0100
0010
0100
0010
0100
1000
0010
0100
0010
,
1000
0100
0010
0001
0010
0100
1000
0100
0010
0001
0010
0100
1000
0100
0010
0001
0010
0100
0010
0001
0100
0010
0001
0010
0100
1000
0010
0100
1000
0100
0010
0001
,
1100
0000
0000
0100
0100
0000
0011
0000
1100
0010
0000
0011
0000
0000
1000
0100
,
0011
0010
1100
0010
0100
0010
0001
0100
1000
0010
0100
0010
0001
0100
0010
0000
,
1100
0000
0000
0000
0010
0001
0010
0100
1000
0100
0010
0001
0010
0100
1000
0010
,
0100
0010
0001
0010
1000
0100
0010
0100
0011
0001
0010
1000
0100
0010
0001
0010
,
1000
0001
1100
0001
1000
0001
1100
0001
1000
0001
1100
0001
1000
0001
1100
0001
,
1000
0001
1100
0001
1000
0001
1100
0001
1000
0001
1100
0001
1000
0001
1100
0001
,
0100
0010
1100
0010
0100
0010
1100
0010
0100
0010
1100
0010
0100
0010
1100
0010
,
0100
0010
1100
0010
0100
0010
1100
0010
0100
0010
1100
0010
0100
0010
1100
0010
,
0100
0001
0110
0001
0100
0001
0110
0001
0100
0001
0110
0001
0100
0001
0110
0001
,
0100
0001
0110
0001
0100
0001
0110
0001
0100
0001
0110
0001
0100
0001
0110
0001
,
1000
0100
1010
0100
0010
0001
1010
0001
0100
0010
0101
0010
1000
0001
1100
0001
,
0100
0010
0001
0010
0100
1000
0100
0010
0001
0010
0100
1000
0100
0010
0001
0010
0100
0010
0100
1000
0100
0010
0001
0010
0100
1000
0100
0010
0002
0000
0000
0000
,
1000
0000
0100
0010
1000
0000
0100
0000
0010
0000
0100
0000
1003
0000
0100
0000
,
0001
0010
1000
0100
0010
0001
0010
0100
,
0010
0000
0001
0010
0100
0000
1000
0000
0100
0000
0010
0000
0100
0000
0001
0000
,
0100
0000
0010
0000
0100
0000
1000
0000
0100
0010
0001
0100
0010
0001
0010
0100
,
1000
0010
0101
0010
1000
0010
0101
0010
0100
0010
0101
0010
0100
1000
0101
0010
,
0100
0010
1001
0010
0010
0010
0101
0010
1000
0010
0101
0010
1000
0100
1010
0001
,
0100
0010
1100
0001
0010
0100
1001
0010
0100
0010
1001
0010
1000
0010
0101
0100
,
0011
0000
0110
0000
1100
0000
0011
0000
1000
0100
1000
0100
0010
0001
0010
0001
,
2100
0110
0100
0110
3012
0110
1000
0110
,
0213
0011
1000
0011
0321
1100
0100
1100
,
2130
0110
0001
0110
3102
1100
0010
1100
,
0103
0010
0100
0010
0100
0010
0100
0010
1000
0100
0010
0001
0010
0100
1000
0100
,
0001
0000
0010
0001
0100
0000
1000
0000
0100
0000
0010
0000
0001
0000
0100
0000
,
1000
0100
0010
0001
0100
0010
1000
0100
,
0001
0000
1000
0000
0100
0000
0010
0000
0001
0000
0100
0000
0010
0000
0010
0001
,
0010
0100
1000
0100
0010
0001
0010
0001
0100
0020
0000
0000
0000
0000
0000
0000
,
0030
0000
0000
0000
0100
0000
0010
0000
0000
1001
0000
0000
0000
0000
0000
0000
;
